Angry Birds / Angry Birds ve filmu (2016)

Napísať odpoveď
Jack86
Registrovaní užívatelia
Príspevky: 224
Dátum registrácie: 13 Mar 2009, 18:23

Angry Birds / Angry Birds ve filmu (2016)

Príspevok od užívateľa Jack86 » 28 Júl 2016, 15:10

Obrázok


Kód: Vybrať všetko

http://www.csfd.cz/film/322352-angry-birds-ve-filmu/prehled/
http://www.imdb.com/title/tt1985949/combined



Angry.Birds.2016.1080p.BluRay.x264-GECKOS + titulky


Audio: EN
Titulky: CZ


Kód: Vybrať všetko

Angry.Birds.2016.1080p.BluRay.x264-GECKOS
Format                      : Matroska
Format version              : Version 4 / Version 2
File size                   : 5.46 GiB
Duration                    : 1h 37mn
Overall bit rate            : 8 046 Kbps
Encoded date                : UTC 2016-07-27 16:33:05
Writing application         : mkvmerge v8.3.0 ('Over the Horizon') 64bit
Writing library             : libebml v1.3.1 + libmatroska v1.4.2

Video
ID                          : 1
Format                      : AVC
Format/Info                 : Advanced Video Codec
Format profile              : High@L4.1
Format settings, CABAC      : Yes
Format settings, ReFrames   : 4 frames
Codec ID                    : V_MPEG4/ISO/AVC
Duration                    : 1h 37mn
Bit rate                    : 6 536 Kbps
Width                       : 1 920 pixels
Height                      : 1 040 pixels
Display aspect ratio        : 1.85:1
Frame rate mode             : Constant
Frame rate                  : 23.976 fps
Color space                 : YUV
Chroma subsampling          : 4:2:0
Bit depth                   : 8 bits
Scan type                   : Progressive
Bits/(Pixel*Frame)          : 0.137
Stream size                 : 4.44 GiB (81%)
Writing library             : x264 core 148 r2692 64f4e24
Encoding settings           : cabac=1 / ref=4 / deblock=1:0:0 / analyse=0x3:0x133 / me=umh / subme=7 / psy=1 / psy_rd=1.00:0.00 / mixed_ref=1 / me_range=16 / chroma_me=1 / trellis=1 / 8x8dct=1 / cqm=0 / deadzone=21,11 / fast_pskip=0 / chroma_qp_offset=-2 / threads=18 / lookahead_threads=3 / sliced_threads=0 / nr=0 / decimate=1 / interlaced=0 / bluray_compat=0 / constrained_intra=0 / bframes=3 / b_pyramid=2 / b_adapt=1 / b_bias=0 / direct=1 / weightb=1 / open_gop=0 / weightp=2 / keyint=250 / keyint_min=23 / scenecut=40 / intra_refresh=0 / rc_lookahead=40 / rc=2pass / mbtree=1 / bitrate=6536 / ratetol=1.0 / qcomp=0.60 / qpmin=0 / qpmax=69 / qpstep=4 / cplxblur=20.0 / qblur=0.5 / ip_ratio=1.40 / aq=1:1.00
Language                    : English
Default                     : Yes
Forced                      : No

Audio
ID                          : 2
Format                      : DTS
Format/Info                 : Digital Theater Systems
Mode                        : 16
Format settings, Endianness : Big
Codec ID                    : A_DTS
Duration                    : 1h 37mn
Bit rate mode               : Constant
Bit rate                    : 1 509 Kbps
Channel(s)                  : 6 channels
Channel positions           : Front: L C R, Side: L R, LFE
Sampling rate               : 48.0 KHz
Frame rate                  : 93.750 fps (512 spf)
Bit depth                   : 24 bits
Compression mode            : Lossy
Stream size                 : 1.02 GiB (19%)
Language                    : English
Default                     : Yes
Forced                      : No

Menu
00:00:00.000                : en:00:00:00.000
00:07:05.091                : en:00:07:05.091
00:13:38.109                : en:00:13:38.109
00:20:22.638                : en:00:20:22.638
00:25:38.620                : en:00:25:38.620
00:32:57.392                : en:00:32:57.392
00:38:34.812                : en:00:38:34.812
00:41:36.327                : en:00:41:36.327
00:47:12.955                : en:00:47:12.955
00:52:04.288                : en:00:52:04.288
00:56:07.698                : en:00:56:07.698
00:59:08.712                : en:00:59:08.712
01:03:43.319                : en:01:03:43.319
01:11:45.801                : en:01:11:45.801
01:18:55.522                : en:01:18:55.522
01:23:54.821                : en:01:23:54.821


Kód: Vybrať všetko

http://www.fastshare.cz/6255741/sglb0861sbya.part1.rar
http://www.fastshare.cz/6255750/sglb0861sbya.part2.rar
http://www.fastshare.cz/6255754/sglb0861sbya.part3.rar


Kód: Vybrať všetko

https://sdilej.cz/7902174/SGlB0861sByA.part1.rar
https://sdilej.cz/7902175/SGlB0861sByA.part2.rar
https://sdilej.cz/7902177/SGlB0861sByA.part3.rar



Upload 3% na opravu dat

no pass
SNADNÉ PŘIVYDĚLÁNÍ NA INTERNETU A OPRAVY ATD. Jack.add@seznam.cz
LINKY MŮŽETE VOLNĚ ŠÍŘIT
REGISTRACE: http://sharerapid.biz

Jack86
Registrovaní užívatelia
Príspevky: 224
Dátum registrácie: 13 Mar 2009, 18:23

Re: Angry Birds / Angry Birds ve filmu (2016)

Príspevok od užívateľa Jack86 » 31 Júl 2016, 20:27

Obrázok


Kód: Vybrať všetko

http://www.csfd.cz/film/322352-angry-birds-ve-filmu/prehled/
http://www.imdb.com/title/tt1985949/combined



The.Angry.Birds.Movie.2016.1080p.BluRay.x264.DTS-HD.MA.7.1-RARBG + titulky


Audio: EN
Titulky: CZ


Kód: Vybrať všetko

The.Angry.Birds.Movie.2016.1080p.BluRay.x264.DTS-HD.MA.7.1-RARBG
Format                      : Matroska
Format version              : Version 4 / Version 2
File size                   : 6.37 GiB
Duration                    : 1h 37mn
Overall bit rate            : 9 383 Kbps
Movie name                  : The.Angry.Birds.Movie.2016.1080p.BluRay.x264.DTS-HD.MA.7.1-RARBG
Encoded date                : UTC 2016-07-30 12:49:03
Writing application         : mkvmerge v9.3.1 ('Mask Machine') 64bit
Writing library             : libebml v1.3.4 + libmatroska v1.4.5
Cover                       : Yes
Attachments                 : small_cover.jpg / small_cover_land.jpg / cover.jpg / cover_land.jpg

Video
ID                          : 1
Format                      : AVC
Format/Info                 : Advanced Video Codec
Format profile              : High@L4.1
Format settings, CABAC      : Yes
Format settings, ReFrames   : 4 frames
Codec ID                    : V_MPEG4/ISO/AVC
Duration                    : 1h 37mn
Nominal bit rate            : 6 536 Kbps
Width                       : 1 920 pixels
Height                      : 1 040 pixels
Display aspect ratio        : 1.85:1
Frame rate mode             : Constant
Frame rate                  : 23.976 fps
Color space                 : YUV
Chroma subsampling          : 4:2:0
Bit depth                   : 8 bits
Scan type                   : Progressive
Bits/(Pixel*Frame)          : 0.137
Title                       : The.Angry.Birds.Movie.2016.1080p.BluRay.x264.DTS-HD.MA.7.1-RARBG
Writing library             : x264 core 148 r2692 64f4e24
Encoding settings           : cabac=1 / ref=4 / deblock=1:0:0 / analyse=0x3:0x133 / me=umh / subme=7 / psy=1 / psy_rd=1.00:0.00 / mixed_ref=1 / me_range=16 / chroma_me=1 / trellis=1 / 8x8dct=1 / cqm=0 / deadzone=21,11 / fast_pskip=0 / chroma_qp_offset=-2 / threads=18 / lookahead_threads=3 / sliced_threads=0 / nr=0 / decimate=1 / interlaced=0 / bluray_compat=0 / constrained_intra=0 / bframes=3 / b_pyramid=2 / b_adapt=1 / b_bias=0 / direct=1 / weightb=1 / open_gop=0 / weightp=2 / keyint=250 / keyint_min=23 / scenecut=40 / intra_refresh=0 / rc_lookahead=40 / rc=2pass / mbtree=1 / bitrate=6536 / ratetol=1.0 / qcomp=0.60 / qpmin=0 / qpmax=69 / qpstep=4 / cplxblur=20.0 / qblur=0.5 / ip_ratio=1.40 / aq=1:1.00
Language                    : English
Default                     : Yes
Forced                      : No

Audio
ID                          : 2
Format                      : DTS
Format/Info                 : Digital Theater Systems
Format profile              : MA / Core
Mode                        : 16
Format settings, Endianness : Big
Codec ID                    : A_DTS
Duration                    : 1h 37mn
Bit rate mode               : Variable / Constant
Bit rate                    : Unknown / 1 509 Kbps
Channel(s)                  : 8 channels / 6 channels
Channel positions           : Front: L C R, Side: L R, Back: L R, LFE / Front: L C R, Side: L R, LFE
Sampling rate               : 48.0 KHz
Frame rate                  : 93.750 fps (512 spf)
Bit depth                   : 16 bits
Compression mode            : Lossless / Lossy
Title                       : The.Angry.Birds.Movie.2016.1080p.BluRay.x264.DTS-HD.MA.7.1-RARBG
Language                    : English
Default                     : Yes
Forced                      : No

Text #1
ID                          : 3
Format                      : PGS
Muxing mode                 : zlib
Codec ID                    : S_HDMV/PGS
Codec ID/Info               : Picture based subtitle format used on BDs/HD-DVDs
Title                       : English-PGS
Language                    : English
Default                     : No
Forced                      : No

Text #2
ID                          : 4
Format                      : PGS
Muxing mode                 : zlib
Codec ID                    : S_HDMV/PGS
Codec ID/Info               : Picture based subtitle format used on BDs/HD-DVDs
Title                       : English-SDH-PGS
Language                    : English
Default                     : No
Forced                      : No

Text #3
ID                          : 5
Format                      : PGS
Muxing mode                 : zlib
Codec ID                    : S_HDMV/PGS
Codec ID/Info               : Picture based subtitle format used on BDs/HD-DVDs
Title                       : Chinese-PGS
Language                    : Chinese
Default                     : No
Forced                      : No

Text #4
ID                          : 6
Format                      : PGS
Muxing mode                 : zlib
Codec ID                    : S_HDMV/PGS
Codec ID/Info               : Picture based subtitle format used on BDs/HD-DVDs
Title                       : French-PGS
Language                    : French
Default                     : No
Forced                      : No

Text #5
ID                          : 7
Format                      : PGS
Muxing mode                 : zlib
Codec ID                    : S_HDMV/PGS
Codec ID/Info               : Picture based subtitle format used on BDs/HD-DVDs
Title                       : Indonesian-PGS
Language                    : Indonesian
Default                     : No
Forced                      : No

Text #6
ID                          : 8
Format                      : PGS
Muxing mode                 : zlib
Codec ID                    : S_HDMV/PGS
Codec ID/Info               : Picture based subtitle format used on BDs/HD-DVDs
Title                       : Korean-PGS
Language                    : Korean
Default                     : No
Forced                      : No

Text #7
ID                          : 9
Format                      : PGS
Muxing mode                 : zlib
Codec ID                    : S_HDMV/PGS
Codec ID/Info               : Picture based subtitle format used on BDs/HD-DVDs
Title                       : Portuguese-PGS
Language                    : Portuguese
Default                     : No
Forced                      : No

Text #8
ID                          : 10
Format                      : PGS
Muxing mode                 : zlib
Codec ID                    : S_HDMV/PGS
Codec ID/Info               : Picture based subtitle format used on BDs/HD-DVDs
Title                       : Spanish-PGS
Language                    : Spanish
Default                     : No
Forced                      : No

Text #9
ID                          : 11
Format                      : PGS
Muxing mode                 : zlib
Codec ID                    : S_HDMV/PGS
Codec ID/Info               : Picture based subtitle format used on BDs/HD-DVDs
Title                       : Thai-PGS
Language                    : Thai
Default                     : No
Forced                      : No

Text #10
ID                          : 12
Format                      : PGS
Muxing mode                 : zlib
Codec ID                    : S_HDMV/PGS
Codec ID/Info               : Picture based subtitle format used on BDs/HD-DVDs
Title                       : Vietnamese-PGS
Language                    : Vietnamese
Default                     : No
Forced                      : No

Text #11
ID                          : 13
Format                      : PGS
Muxing mode                 : zlib
Codec ID                    : S_HDMV/PGS
Codec ID/Info               : Picture based subtitle format used on BDs/HD-DVDs
Title                       : Chinese-PGS
Language                    : Chinese
Default                     : No
Forced                      : No

Text #12
ID                          : 14
Format                      : PGS
Muxing mode                 : zlib
Codec ID                    : S_HDMV/PGS
Codec ID/Info               : Picture based subtitle format used on BDs/HD-DVDs
Title                       : Chinese-PGS
Language                    : Chinese
Default                     : No
Forced                      : No

Menu
00:00:00.000                : en:00:00:00.000
00:07:05.091                : en:00:07:05.091
00:13:38.109                : en:00:13:38.109
00:20:22.638                : en:00:20:22.638
00:25:38.620                : en:00:25:38.620
00:32:57.392                : en:00:32:57.392
00:38:34.812                : en:00:38:34.812
00:41:36.327                : en:00:41:36.327
00:47:12.955                : en:00:47:12.955
00:52:04.288                : en:00:52:04.288
00:56:07.698                : en:00:56:07.698
00:59:08.712                : en:00:59:08.712
01:03:43.319                : en:01:03:43.319
01:11:45.801                : en:01:11:45.801
01:18:55.522                : en:01:18:55.522
01:23:54.821                : en:01:23:54.821


Kód: Vybrať všetko

http://www.fastshare.cz/6275971/grramhsdyrb0861emsbyat.part1.rar
http://www.fastshare.cz/6276009/grramhsdyrb0861emsbyat.part2.rar
http://www.fastshare.cz/6276043/grramhsdyrb0861emsbyat.part3.rar
http://www.fastshare.cz/6276063/grramhsdyrb0861emsbyat.part4.rar


Kód: Vybrať všetko

https://sdilej.cz/7904694/GRRAMHSDyRB0861eMsByAT.part1.rar
https://sdilej.cz/7904695/GRRAMHSDyRB0861eMsByAT.part2.rar
https://sdilej.cz/7904696/GRRAMHSDyRB0861eMsByAT.part3.rar
https://sdilej.cz/7904697/GRRAMHSDyRB0861eMsByAT.part4.rar


The.Angry.Birds.Movie.2016.1080p.BluRay.REMUX.AVC.DTS-HD.MA.7.1-RARBG + titulky


Audio: EN
Titulky: CZ


Kód: Vybrať všetko

The.Angry.Birds.Movie.2016.1080p.BluRay.REMUX.AVC.DTS-HD.MA.7.1-RARBG
Format                      : Matroska
Format version              : Version 4 / Version 2
File size                   : 26.4 GiB
Duration                    : 1h 37mn
Overall bit rate mode       : Variable
Overall bit rate            : 38.8 Mbps
Movie name                  : The.Angry.Birds.Movie.2016.1080p.BluRay.REMUX.AVC.DTS-HD.MA.7.1-RARBG
Encoded date                : UTC 2016-07-30 12:45:22
Writing application         : mkvmerge v9.3.1 ('Mask Machine') 64bit
Writing library             : libebml v1.3.4 + libmatroska v1.4.5
Cover                       : Yes
Attachments                 : small_cover.jpg / small_cover_land.jpg / cover.jpg / cover_land.jpg

Video
ID                          : 1
Format                      : AVC
Format/Info                 : Advanced Video Codec
Format profile              : High@L4.1
Format settings, CABAC      : Yes
Format settings, ReFrames   : 2 frames
Format settings, GOP        : M=1, N=10
Codec ID                    : V_MPEG4/ISO/AVC
Duration                    : 1h 37mn
Bit rate mode               : Variable
Width                       : 1 920 pixels
Height                      : 1 080 pixels
Display aspect ratio        : 16:9
Frame rate mode             : Constant
Frame rate                  : 23.976 (24000/1001) fps
Color space                 : YUV
Chroma subsampling          : 4:2:0
Bit depth                   : 8 bits
Scan type                   : Progressive
Title                       : The.Angry.Birds.Movie.2016.1080p.BluRay.REMUX.AVC.DTS-HD.MA.7.1-RARBG
Language                    : English
Default                     : No
Forced                      : No

Audio #1
ID                          : 2
Format                      : DTS
Format/Info                 : Digital Theater Systems
Format profile              : MA / Core
Mode                        : 16
Format settings, Endianness : Big
Codec ID                    : A_DTS
Duration                    : 1h 37mn
Bit rate mode               : Variable / Constant
Bit rate                    : Unknown / 1 509 Kbps
Channel(s)                  : 8 channels / 6 channels
Channel positions           : Front: L C R, Side: L R, Back: L R, LFE / Front: L C R, Side: L R, LFE
Sampling rate               : 48.0 KHz
Frame rate                  : 93.750 fps (512 spf)
Bit depth                   : 16 bits
Compression mode            : Lossless / Lossy
Title                       : The.Angry.Birds.Movie.2016.1080p.BluRay.REMUX.AVC.DTS-HD.MA.7.1-RARBG
Language                    : English
Default                     : Yes
Forced                      : No

Audio #2
ID                          : 3
Format                      : DTS
Format/Info                 : Digital Theater Systems
Mode                        : 16
Format settings, Endianness : Big
Codec ID                    : A_DTS
Duration                    : 1h 37mn
Bit rate mode               : Constant
Bit rate                    : 1 509 Kbps
Channel(s)                  : 6 channels
Channel positions           : Front: L C R, Side: L R, LFE
Sampling rate               : 48.0 KHz
Frame rate                  : 93.750 fps (512 spf)
Bit depth                   : 16 bits
Compression mode            : Lossy
Stream size                 : 1.02 GiB (4%)
Title                       : The.Angry.Birds.Movie.2016.1080p.BluRay.REMUX.AVC.DTS-HD.MA.7.1-RARBG
Language                    : English
Default                     : No
Forced                      : No

Audio #3
ID                          : 4
Format                      : AC-3
Format/Info                 : Audio Coding 3
Mode extension              : CM (complete main)
Format settings, Endianness : Big
Codec ID                    : A_AC3
Duration                    : 1h 37mn
Bit rate mode               : Constant
Bit rate                    : 640 Kbps
Channel(s)                  : 6 channels
Channel positions           : Front: L C R, Side: L R, LFE
Sampling rate               : 48.0 KHz
Frame rate                  : 31.250 fps (1536 spf)
Compression mode            : Lossy
Stream size                 : 445 MiB (2%)
Title                       : The.Angry.Birds.Movie.2016.1080p.BluRay.REMUX.AVC.DTS-HD.MA.7.1-RARBG
Language                    : English
Default                     : No
Forced                      : No

Audio #4
ID                          : 5
Format                      : AC-3
Format/Info                 : Audio Coding 3
Mode extension              : CM (complete main)
Format settings, Endianness : Big
Codec ID                    : A_AC3
Duration                    : 1h 37mn
Bit rate mode               : Constant
Bit rate                    : 640 Kbps
Channel(s)                  : 6 channels
Channel positions           : Front: L C R, Side: L R, LFE
Sampling rate               : 48.0 KHz
Frame rate                  : 31.250 fps (1536 spf)
Compression mode            : Lossy
Stream size                 : 445 MiB (2%)
Title                       : The.Angry.Birds.Movie.2016.1080p.BluRay.REMUX.AVC.DTS-HD.MA.7.1-RARBG
Language                    : Chinese
Default                     : No
Forced                      : No

Audio #5
ID                          : 6
Format                      : AC-3
Format/Info                 : Audio Coding 3
Mode extension              : CM (complete main)
Format settings, Endianness : Big
Codec ID                    : A_AC3
Duration                    : 1h 37mn
Bit rate mode               : Constant
Bit rate                    : 640 Kbps
Channel(s)                  : 6 channels
Channel positions           : Front: L C R, Side: L R, LFE
Sampling rate               : 48.0 KHz
Frame rate                  : 31.250 fps (1536 spf)
Compression mode            : Lossy
Stream size                 : 445 MiB (2%)
Title                       : The.Angry.Birds.Movie.2016.1080p.BluRay.REMUX.AVC.DTS-HD.MA.7.1-RARBG
Language                    : Chinese
Default                     : No
Forced                      : No

Audio #6
ID                          : 7
Format                      : AC-3
Format/Info                 : Audio Coding 3
Mode extension              : CM (complete main)
Format settings, Endianness : Big
Codec ID                    : A_AC3
Duration                    : 1h 37mn
Bit rate mode               : Constant
Bit rate                    : 640 Kbps
Channel(s)                  : 6 channels
Channel positions           : Front: L C R, Side: L R, LFE
Sampling rate               : 48.0 KHz
Frame rate                  : 31.250 fps (1536 spf)
Compression mode            : Lossy
Stream size                 : 445 MiB (2%)
Title                       : The.Angry.Birds.Movie.2016.1080p.BluRay.REMUX.AVC.DTS-HD.MA.7.1-RARBG
Language                    : Chinese
Default                     : No
Forced                      : No

Audio #7
ID                          : 8
Format                      : AC-3
Format/Info                 : Audio Coding 3
Mode extension              : CM (complete main)
Format settings, Endianness : Big
Codec ID                    : A_AC3
Duration                    : 1h 37mn
Bit rate mode               : Constant
Bit rate                    : 640 Kbps
Channel(s)                  : 6 channels
Channel positions           : Front: L C R, Side: L R, LFE
Sampling rate               : 48.0 KHz
Frame rate                  : 31.250 fps (1536 spf)
Compression mode            : Lossy
Stream size                 : 445 MiB (2%)
Title                       : The.Angry.Birds.Movie.2016.1080p.BluRay.REMUX.AVC.DTS-HD.MA.7.1-RARBG
Language                    : French
Default                     : No
Forced                      : No

Audio #8
ID                          : 9
Format                      : AC-3
Format/Info                 : Audio Coding 3
Mode extension              : CM (complete main)
Format settings, Endianness : Big
Codec ID                    : A_AC3
Duration                    : 1h 37mn
Bit rate mode               : Constant
Bit rate                    : 640 Kbps
Channel(s)                  : 6 channels
Channel positions           : Front: L C R, Side: L R, LFE
Sampling rate               : 48.0 KHz
Frame rate                  : 31.250 fps (1536 spf)
Compression mode            : Lossy
Stream size                 : 445 MiB (2%)
Title                       : The.Angry.Birds.Movie.2016.1080p.BluRay.REMUX.AVC.DTS-HD.MA.7.1-RARBG
Language                    : Korean
Default                     : No
Forced                      : No

Audio #9
ID                          : 10
Format                      : DTS
Format/Info                 : Digital Theater Systems
Format profile              : MA / Core
Mode                        : 16
Format settings, Endianness : Big
Codec ID                    : A_DTS
Duration                    : 1h 37mn
Bit rate mode               : Variable / Constant
Bit rate                    : Unknown / 1 509 Kbps
Channel(s)                  : 6 channels
Channel positions           : Front: L C R, Side: L R, LFE
Sampling rate               : 48.0 KHz
Frame rate                  : 93.750 fps (512 spf)
Bit depth                   : 16 bits
Compression mode            : Lossless / Lossy
Title                       : The.Angry.Birds.Movie.2016.1080p.BluRay.REMUX.AVC.DTS-HD.MA.7.1-RARBG
Language                    : Portuguese
Default                     : No
Forced                      : No

Audio #10
ID                          : 11
Format                      : DTS
Format/Info                 : Digital Theater Systems
Mode                        : 16
Format settings, Endianness : Big
Codec ID                    : A_DTS
Duration                    : 1h 37mn
Bit rate mode               : Constant
Bit rate                    : 1 509 Kbps
Channel(s)                  : 6 channels
Channel positions           : Front: L C R, Side: L R, LFE
Sampling rate               : 48.0 KHz
Frame rate                  : 93.750 fps (512 spf)
Bit depth                   : 16 bits
Compression mode            : Lossy
Stream size                 : 1.02 GiB (4%)
Title                       : The.Angry.Birds.Movie.2016.1080p.BluRay.REMUX.AVC.DTS-HD.MA.7.1-RARBG
Language                    : Portuguese
Default                     : No
Forced                      : No

Audio #11
ID                          : 12
Format                      : AC-3
Format/Info                 : Audio Coding 3
Mode extension              : CM (complete main)
Format settings, Endianness : Big
Codec ID                    : A_AC3
Duration                    : 1h 37mn
Bit rate mode               : Constant
Bit rate                    : 640 Kbps
Channel(s)                  : 6 channels
Channel positions           : Front: L C R, Side: L R, LFE
Sampling rate               : 48.0 KHz
Frame rate                  : 31.250 fps (1536 spf)
Compression mode            : Lossy
Stream size                 : 445 MiB (2%)
Title                       : The.Angry.Birds.Movie.2016.1080p.BluRay.REMUX.AVC.DTS-HD.MA.7.1-RARBG
Language                    : Spanish
Default                     : No
Forced                      : No

Audio #12
ID                          : 13
Format                      : AC-3
Format/Info                 : Audio Coding 3
Mode extension              : CM (complete main)
Format settings, Endianness : Big
Codec ID                    : A_AC3
Duration                    : 1h 37mn
Bit rate mode               : Constant
Bit rate                    : 640 Kbps
Channel(s)                  : 6 channels
Channel positions           : Front: L C R, Side: L R, LFE
Sampling rate               : 48.0 KHz
Frame rate                  : 31.250 fps (1536 spf)
Compression mode            : Lossy
Stream size                 : 445 MiB (2%)
Title                       : The.Angry.Birds.Movie.2016.1080p.BluRay.REMUX.AVC.DTS-HD.MA.7.1-RARBG
Language                    : Thai
Default                     : No
Forced                      : No

Audio #13
ID                          : 14
Format                      : AC-3
Format/Info                 : Audio Coding 3
Mode extension              : CM (complete main)
Format settings, Endianness : Big
Codec ID                    : A_AC3
Duration                    : 1h 37mn
Bit rate mode               : Constant
Bit rate                    : 640 Kbps
Channel(s)                  : 6 channels
Channel positions           : Front: L C R, Side: L R, LFE
Sampling rate               : 48.0 KHz
Frame rate                  : 31.250 fps (1536 spf)
Compression mode            : Lossy
Stream size                 : 445 MiB (2%)
Title                       : The.Angry.Birds.Movie.2016.1080p.BluRay.REMUX.AVC.DTS-HD.MA.7.1-RARBG
Language                    : Vietnamese
Default                     : No
Forced                      : No

Audio #14
ID                          : 15
Format                      : AC-3
Format/Info                 : Audio Coding 3
Format profile              : Dolby Digital
Mode extension              : CM (complete main)
Format settings, Endianness : Big
Codec ID                    : A_AC3
Duration                    : 1h 37mn
Bit rate mode               : Constant
Bit rate                    : 192 Kbps
Channel(s)                  : 2 channels
Channel positions           : Front: L R
Sampling rate               : 48.0 KHz
Frame rate                  : 31.250 fps (1536 spf)
Compression mode            : Lossy
Stream size                 : 134 MiB (0%)
Title                       : The.Angry.Birds.Movie.2016.1080p.BluRay.REMUX.AVC.DTS-HD.MA.7.1-RARBG
Language                    : English
Default                     : No
Forced                      : No

Text #1
ID                          : 16
Format                      : PGS
Muxing mode                 : zlib
Codec ID                    : S_HDMV/PGS
Codec ID/Info               : Picture based subtitle format used on BDs/HD-DVDs
Title                       : English-PGS
Language                    : English
Default                     : No
Forced                      : No

Text #2
ID                          : 17
Format                      : PGS
Muxing mode                 : zlib
Codec ID                    : S_HDMV/PGS
Codec ID/Info               : Picture based subtitle format used on BDs/HD-DVDs
Title                       : English-SDH-PGS
Language                    : English
Default                     : No
Forced                      : No

Text #3
ID                          : 18
Format                      : PGS
Muxing mode                 : zlib
Codec ID                    : S_HDMV/PGS
Codec ID/Info               : Picture based subtitle format used on BDs/HD-DVDs
Title                       : Chinese-PGS
Language                    : Chinese
Default                     : No
Forced                      : No

Text #4
ID                          : 19
Format                      : PGS
Muxing mode                 : zlib
Codec ID                    : S_HDMV/PGS
Codec ID/Info               : Picture based subtitle format used on BDs/HD-DVDs
Title                       : French-PGS
Language                    : French
Default                     : No
Forced                      : No

Text #5
ID                          : 20
Format                      : PGS
Muxing mode                 : zlib
Codec ID                    : S_HDMV/PGS
Codec ID/Info               : Picture based subtitle format used on BDs/HD-DVDs
Title                       : Indonesian-PGS
Language                    : Indonesian
Default                     : No
Forced                      : No

Text #6
ID                          : 21
Format                      : PGS
Muxing mode                 : zlib
Codec ID                    : S_HDMV/PGS
Codec ID/Info               : Picture based subtitle format used on BDs/HD-DVDs
Title                       : Korean-PGS
Language                    : Korean
Default                     : No
Forced                      : No

Text #7
ID                          : 22
Format                      : PGS
Muxing mode                 : zlib
Codec ID                    : S_HDMV/PGS
Codec ID/Info               : Picture based subtitle format used on BDs/HD-DVDs
Title                       : Portuguese-PGS
Language                    : Portuguese
Default                     : No
Forced                      : No

Text #8
ID                          : 23
Format                      : PGS
Muxing mode                 : zlib
Codec ID                    : S_HDMV/PGS
Codec ID/Info               : Picture based subtitle format used on BDs/HD-DVDs
Title                       : Portuguese-FORCED-PGS
Language                    : Portuguese
Default                     : No
Forced                      : No

Text #9
ID                          : 24
Format                      : PGS
Muxing mode                 : zlib
Codec ID                    : S_HDMV/PGS
Codec ID/Info               : Picture based subtitle format used on BDs/HD-DVDs
Title                       : Spanish-PGS
Language                    : Spanish
Default                     : No
Forced                      : No

Text #10
ID                          : 25
Format                      : PGS
Muxing mode                 : zlib
Codec ID                    : S_HDMV/PGS
Codec ID/Info               : Picture based subtitle format used on BDs/HD-DVDs
Title                       : Spanish-FORCED-PGS
Language                    : Spanish
Default                     : No
Forced                      : No

Text #11
ID                          : 26
Format                      : PGS
Muxing mode                 : zlib
Codec ID                    : S_HDMV/PGS
Codec ID/Info               : Picture based subtitle format used on BDs/HD-DVDs
Title                       : Thai-PGS
Language                    : Thai
Default                     : No
Forced                      : No

Text #12
ID                          : 27
Format                      : PGS
Muxing mode                 : zlib
Codec ID                    : S_HDMV/PGS
Codec ID/Info               : Picture based subtitle format used on BDs/HD-DVDs
Title                       : Vietnamese-PGS
Language                    : Vietnamese
Default                     : No
Forced                      : No

Text #13
ID                          : 28
Format                      : PGS
Muxing mode                 : zlib
Codec ID                    : S_HDMV/PGS
Codec ID/Info               : Picture based subtitle format used on BDs/HD-DVDs
Title                       : Chinese-PGS
Language                    : Chinese
Default                     : No
Forced                      : No

Text #14
ID                          : 29
Format                      : PGS
Muxing mode                 : zlib
Codec ID                    : S_HDMV/PGS
Codec ID/Info               : Picture based subtitle format used on BDs/HD-DVDs
Title                       : Chinese-PGS
Language                    : Chinese
Default                     : No
Forced                      : No

Menu
00:00:00.000                : en:Chapter 01
00:07:04.715                : en:Chapter 02
00:13:38.108                : en:Chapter 03
00:20:22.387                : en:Chapter 04
00:25:38.620                : en:Chapter 05
00:32:57.058                : en:Chapter 06
00:38:34.812                : en:Chapter 07
00:41:36.327                : en:Chapter 08
00:47:12.579                : en:Chapter 09
00:52:04.287                : en:Chapter 10
00:56:07.572                : en:Chapter 11
00:59:08.711                : en:Chapter 12
01:03:43.361                : en:Chapter 13
01:11:45.801                : en:Chapter 14
01:18:55.522                : en:Chapter 15
01:23:54.821                : en:Chapter 16


Kód: Vybrať všetko

http://www.fastshare.cz/6276621/grramdhsdxryrb0861emsrbyat.part01.rar
http://www.fastshare.cz/6276652/grramdhsdxryrb0861emsrbyat.part02.rar
http://www.fastshare.cz/6276691/grramdhsdxryrb0861emsrbyat.part03.rar
http://www.fastshare.cz/6276727/grramdhsdxryrb0861emsrbyat.part04.rar
http://www.fastshare.cz/6276764/grramdhsdxryrb0861emsrbyat.part05.rar
http://www.fastshare.cz/6276804/grramdhsdxryrb0861emsrbyat.part06.rar
http://www.fastshare.cz/6276838/grramdhsdxryrb0861emsrbyat.part07.rar
http://www.fastshare.cz/6276870/grramdhsdxryrb0861emsrbyat.part08.rar
http://www.fastshare.cz/6276907/grramdhsdxryrb0861emsrbyat.part09.rar
http://www.fastshare.cz/6276948/grramdhsdxryrb0861emsrbyat.part10.rar
http://www.fastshare.cz/6276985/grramdhsdxryrb0861emsrbyat.part11.rar
http://www.fastshare.cz/6277017/grramdhsdxryrb0861emsrbyat.part12.rar
http://www.fastshare.cz/6277040/grramdhsdxryrb0861emsrbyat.part13.rar
http://www.fastshare.cz/6277058/grramdhsdxryrb0861emsrbyat.part14.rar


Kód: Vybrať všetko

https://sdilej.cz/7904747/GRRAMDHSDXRyRB0861eMsrByAT.part01.rar
https://sdilej.cz/7904749/GRRAMDHSDXRyRB0861eMsrByAT.part02.rar
https://sdilej.cz/7904750/GRRAMDHSDXRyRB0861eMsrByAT.part03.rar
https://sdilej.cz/7904754/GRRAMDHSDXRyRB0861eMsrByAT.part04.rar
https://sdilej.cz/7904756/GRRAMDHSDXRyRB0861eMsrByAT.part05.rar
https://sdilej.cz/7904760/GRRAMDHSDXRyRB0861eMsrByAT.part06.rar
https://sdilej.cz/7904761/GRRAMDHSDXRyRB0861eMsrByAT.part11.rar
https://sdilej.cz/7904765/GRRAMDHSDXRyRB0861eMsrByAT.part12.rar
https://sdilej.cz/7904768/GRRAMDHSDXRyRB0861eMsrByAT.part13.rar
https://sdilej.cz/7904771/GRRAMDHSDXRyRB0861eMsrByAT.part14.rar
https://sdilej.cz/7904854/GRRAMDHSDXRyRB0861eMsrByAT.part09.rar
https://sdilej.cz/7904944/GRRAMDHSDXRyRB0861eMsrByAT.part10.rar
https://sdilej.cz/7905046/GRRAMDHSDXRyRB0861eMsrByAT.part07.rar
https://sdilej.cz/7905092/GRRAMDHSDXRyRB0861eMsrByAT.part08.rar


Upload 3% na opravu dat

no pass
SNADNÉ PŘIVYDĚLÁNÍ NA INTERNETU A OPRAVY ATD. Jack.add@seznam.cz
LINKY MŮŽETE VOLNĚ ŠÍŘIT
REGISTRACE: http://sharerapid.biz

Napísať odpoveď

Kto je prítomný

Užívatelia prezerajúci toto fórum: Žiadny pripojení užívatelia a 1 neregistrovaný